Skip to main content

Toubab Krewe Live at Ram's Head Onstage on 2007-11-28

Audio Preview

etree
Toubab Krewe Live at Ram's Head Onstage on 2007-11-28




Toubab Krewe
November 28, 2007
Ram's Head Onstage
Annapolis MD

*** THIS IS A 24-BIT FILESET NOT INTENDED FOR AUDIO CD ***

SOURCE: mbho 603a/ka100dk (jecklin) > sound devices mp2 > busman t-mod edirol r4 (24/96)
PROCESSING: soundforge 8.0 (tracking, fades) > flac 1.2.1b

SET ONE
01
02
03
04
05
06
07
08

SET TWO
01
02
03
04
05
06
07
08
09
10
11


Collection ToubabKrewe
Band/Artist Toubab Krewe
Venue Ram's Head Onstage
Location Annapolis MD

Source mbho 603a/ka100dk (jecklin) > sound devices mp2 > busman t-mod edirol r4 (24/96)
Lineage soundforge 8.0 (tracking, fades) > flac 1.2.1b
Taped by Peter W. King
Transferred by Peter W. King

Notes

length expanded size cdr WAVE problems fmt ratio filename
6:30.500 224928044 B cxx -- ---xx flac 0.6122 toubabkrewe2007-11-28_set1_mbho_t01.flac
7:16.700 251539244 B cxx -- ---xx flac 0.6105 toubabkrewe2007-11-28_set1_mbho_t02.flac
10:46.100 372153644 B cxx -- ---xx flac 0.6093 toubabkrewe2007-11-28_set1_mbho_t03.flac
8:34.800 296524844 B cxx -- ---xx flac 0.6038 toubabkrewe2007-11-28_set1_mbho_t04.flac
8:02.400 277862444 B cxx -- ---xx flac 0.5375 toubabkrewe2007-11-28_set1_mbho_t05.flac
8:39.000 298944044 B cxx -- ---xx flac 0.5987 toubabkrewe2007-11-28_set1_mbho_t06.flac
7:28.900 258566444 B cxx -- ---xx flac 0.6293 toubabkrewe2007-11-28_set1_mbho_t07.flac
8:44.100 301881644 B cxx -- ---xx flac 0.6128 toubabkrewe2007-11-28_set1_mbho_t08.flac
2:14.700 77587244 B cxx -- ---xx flac 0.5016 toubabkrewe2007-11-28_set2_mbho_t01.flac
2:03.900 71366444 B cxx -- ---xx flac 0.4917 toubabkrewe2007-11-28_set2_mbho_t02.flac
4:06.200 141811244 B cxx -- ---xx flac 0.6099 toubabkrewe2007-11-28_set2_mbho_t03.flac
9:04.700 313747244 B cxx -- ---xx flac 0.5929 toubabkrewe2007-11-28_set2_mbho_t04.flac
5:23.500 186336044 B cxx -- ---xx flac 0.6145 toubabkrewe2007-11-28_set2_mbho_t05.flac
6:10.100 213177644 B cxx -- ---xx flac 0.6043 toubabkrewe2007-11-28_set2_mbho_t06.flac
7:20.600 253785644 B cxx -- ---xx flac 0.5938 toubabkrewe2007-11-28_set2_mbho_t07.flac
5:22.100 185529644 B cxx -- ---xx flac 0.6182 toubabkrewe2007-11-28_set2_mbho_t08.flac
6:54.900 238982444 B cxx -- ---xx flac 0.6033 toubabkrewe2007-11-28_set2_mbho_t09.flac
11:07.100 384249644 B cxx -- ---xx flac 0.6128 toubabkrewe2007-11-28_set2_mbho_t10.flac
8:04.200 278899244 B cxx -- ---xx flac 0.6248 toubabkrewe2007-11-28_set2_mbho_t11.flac
133:54.500 4627872836 B 0.6012 (19 files)

comment
Reviews

There are no reviews yet. Be the first one to write a review.
DOWNLOAD OPTIONS
In Collection
Toubab Krewe
In Collection
Live Music Archive
Uploaded by
peterwking
on 8/4/2013
Views
34
SIMILAR ITEMS (based on metadata)
eye
Title
Date Archived
Creator
Toubab Krewe
by Toubab Krewe
etree
eye 36
favorite 0
comment 0
Source: mbho 603a/ka100dk (jecklin) > sound devices mp2 > busman t-mod edirol r4 (24/96)
Toubab Krewe
by Toubab Krewe
etree
eye 69
favorite 0
comment 0
Source: studio projects LSD2 (blumlein) > busman t-mod edirol r4 (24/96)
Toubab Krewe
by Toubab Krewe
etree
eye 199
favorite 1
comment 0
Source: LSD2 (blumlein) > mp2 > busman t-mod edirol r4 (24/96)
Toubab Krewe
by Toubab Krewe
etree
eye 5,511
favorite 2
comment 1
favoritefavoritefavoritefavoritefavorite ( 1 reviews )
Source: LSD2 (blumlein) > mp2 > busman t-mod edirol r4 (24/96)
Toubab Krewe
by Toubab Krewe
etree
eye 1,499
favorite 0
comment 0
Source: Matrix: SBD (L/R Channels delayed seperately via 2 Behringer Shark DSP110's) + AKG 483(ORTF/DFC/FOB)>Oade Mod UA-5>USB>Soundforge 8.0 (44.1KHz)
Toubab Krewe
by Toubab Krewe
etree
eye 116
favorite 2
comment 0
Source: Post Production Matrix [onstage Schoeps mk4/mk8 (ms)> kc5> cmc6xt + SBD> xlr> Edirol R4 (24/44.1)]
Toubab Krewe
by Toubab Krewe
etree
eye 855
favorite 0
comment 0
Source: Schoeps MK4(DIN)>kcy>Sonosax SX-M2/LS>Hydra Silver XLR Interconnects >Sound Devices 722(24/96)
Toubab Krewe
by Toubab Krewe
etree
eye 84
favorite 0
comment 0
Source: mbho603a/ka500hn (hypercardioid, DIN) > mp2 > busman t-mod edirol r4 (24/96)
Toubab Krewe
by Toubab Krewe
etree
eye 73
favorite 0
comment 0
Source: mbho 603a/ka500hn (hypercardioid, DIN) > mp2 > busman t-mod edirol r4 (24/96)
Toubab Krewe
by Toubab Krewe
etree
eye 121
favorite 0
comment 1
( 1 reviews )
Source: KM184>MiniMp>modSBM-1>JB3